The Middle | Prodejní akce | Rob Collins
Loading...

Churchill 2017 1080p BluRay x264-VETO

seeders: 321
leechers: 361
Churchill 2017 1080p BluRay x264-VETO magnet link

Info Hash: 78F51433A8C4A2CAD1B1DD33512FB6DBFD4D7E4D
Loading...
Churchill 2017 1080p BluRay x264-VETO
  • Downloads 56
  • Added 1 week
  • Quality Good
  • Torrent ID 72147619416
  • Note if .torrent file deleted click magnet below
  • Download Magnet
Torrent Info:
• You can easily download Churchill 2017 1080p BluRay x264-VETO Torerent to your PC, MAC, Tablet, Mobile or any other devices.
• HD Quality Torrent Churchill 2017 1080p BluRay x264-VETO
• Your Support Keep WatchTorrentMovie.Us alive.

Torrent Files

Churchill 2017 1080p BluRay x264-VETO (Size: 7.6 GB)
  Churchill 2017 1080p BluRay x264-VETO 7.6 GB

Torrent Description

The Middle | Prodejní akce | Rob Collins

Churchill.2017.1080p.BluRay.x264-VETO

ImDb: http://www.imdb.com/title/tt2674454



Complete name : churchill.2017.1080p.bluray.x264-veto.mkv
Format : Matroska
Format version : Version 4 / Version 2
File size : 7.65 GiB
Duration : 1 h 45 min
Overall bit rate : 10.4 Mb/s
Encoded date : UTC 2017-09-13 16:22:50
Writing application : mkvmerge v10.0.0 ('To Drown In You') 64bit
Writing library : libebml v1.3.4 + libmatroska v1.4.5

Video
ID : 1
Format : AVC
Format/Info : Advanced Video Codec
Format profile : [email protected]
Format settings, CABAC : Yes
Format settings, ReFrames : 5 frames
Codec ID : V_MPEG4/ISO/AVC
Duration : 1 h 45 min
Bit rate : 8 912 kb/s
Width : 1 920 pixels
Height : 808 pixels
Display aspect ratio : 2.40:1
Frame rate mode : Constant
Frame rate : 24.000 FPS
Color space : YUV
Chroma subsampling : 4:2:0
Bit depth : 8 bits
Scan type : Progressive
Bits/(Pixel*Frame) : 0.239
Stream size : 6.54 GiB (85%)
Writing library : x264 core 152 r2851 ba24899
Encoding settings : cabac=1 / ref=5 / deblock=1:-1:-1 / analyse=0x3:0x133 / me=umh / subme=8 / psy=1 / psy_rd=1.00:0.15 / mixed_ref=1 / me_range=16 / chroma_me=1 / trellis=1 / 8x8dct=1 / cqm=0 / deadzone=21,11 / fast_pskip=0 / chroma_qp_offset=-4 / threads=24 / lookahead_threads=4 / sliced_threads=0 / nr=0 / decimate=1 / interlaced=0 / bluray_compat=0 / constrained_intra=0 / bframes=3 / b_pyramid=2 / b_adapt=2 / b_bias=0 / direct=3 / weightb=1 / open_gop=0 / weightp=2 / keyint=240 / keyint_min=23 / scenecut=40 / intra_refresh=0 / rc_lookahead=50 / rc=2pass / mbtree=1 / bitrate=8912 / ratetol=1.0 / qcomp=0.60 / qpmin=10 / qpmax=69 / qpstep=4 / cplxblur=20.0 / qblur=0.5 / ip_ratio=1.40 / aq=1:1.00
Language : English
Default : Yes
Forced : No

Audio
ID : 2
Format : DTS
Format/Info : Digital Theater Systems
Mode : 16
Format settings, Endianness : Big
Codec ID : A_DTS
Duration : 1 h 45 min
Bit rate mode : Constant
Bit rate : 1 509 kb/s
Channel(s) : 6 channels
Channel positions : Front: L C R, Side: L R, LFE
Sampling rate : 48.0 kHz
Frame rate : 93.750 FPS (512 spf)
Bit depth : 24 bits
Compression mode : Lossy
Stream size : 1.11 GiB (14%)
Language : English
Default : Yes
Forced : No

Menu
00:00:00.000 : en:00:00:00.000
00:14:19.917 : en:00:14:19.917
00:25:07.292 : en:00:25:07.292
00:38:27.250 : en:00:38:27.250
00:51:50.333 : en:00:51:50.333
01:07:13.375 : en:01:07:13.375
01:20:10.917 : en:01:20:10.917
01:33:50.125 : en:01:33:50.125






Click To View Screenshot

Click To View Screenshot

Click To View Screenshot




( Tags )





People also Search for: Churchill 2017 1080p BluRay x264-VETO

  • • 1080p Churchill 2017 1080p BluRay x264-VETO Torrent
  • • 720p Churchill 2017 1080p BluRay x264-VETO DVDRip
  • • HD Churchill 2017 1080p BluRay x264-VETO
  • • Dvix/Xvid Churchill 2017 1080p BluRay x264-VETO
  • • Blu-ray Churchill 2017 1080p BluRay x264-VETO

Recently Added Torrents

torrent name size age seed leech
2.11 MB 24 minutes 596 212
1.0 GB 24 minutes 654 127
28.7 GB 24 minutes 86 264
1.4 GB 24 minutes 799 422
4.7 MB 24 minutes 55 241