Tokyo Underground | Baby Driver (2017) hd .mkv | Nae-sang Ahn
Loading...

Diary Of A Wimpy Kid The Long Haul (2017) 720p BluRay x264 ESubs [Dual Audio][Hindi + English][DD 5 0] -TeamTNT

seeders: 732
leechers: 272
Diary Of A Wimpy Kid The Long Haul (2017) 720p BluRay x264 ESubs [Dual Audio][Hindi + English][DD 5 0] -TeamTNT magnet link

Info Hash: 7435780AC16B7CFF8504C2B37ABF9544416B1A7E
Loading...
Diary Of A Wimpy Kid The Long Haul (2017) 720p BluRay x264 ESubs [Dual Audio][Hindi + English][DD 5 0] -TeamTNT
  • Downloads 7
  • Added 1 week
  • Quality Good
  • Torrent ID 72147619446
  • Note if .torrent file deleted click magnet below
  • Download Magnet
Torrent Info:
• You can easily download Diary Of A Wimpy Kid The Long Haul (2017) 720p BluRay x264 ESubs [Dual Audio][Hindi + English][DD 5 0] -TeamTNT Torerent to your PC, MAC, Tablet, Mobile or any other devices.
• HD Quality Torrent Diary Of A Wimpy Kid The Long Haul (2017) 720p BluRay x264 ESubs [Dual Audio][Hindi + English][DD 5 0] -TeamTNT
• Your Support Keep WatchTorrentMovie.Us alive.

Torrent Files

Diary Of A Wimpy Kid The Long Haul (2017) 720p BluRay x264 ESubs [Dual Audio][Hindi + English][DD 5 0] -TeamTNT (Size: 1.2 GB)
  Diary Of A Wimpy Kid The Long Haul (2017) 720p BluRay x264 ESubs [Dual Audio][Hindi + English][DD 5 0] -TeamTNT 1.2 GB

Torrent Description

Tokyo Underground | Baby Driver (2017) hd .mkv | Nae-sang Ahn





Diary Of A Wimpy Kid The Long Haul (2017) 720p BluRay x264 ESubs [Dual Audio][Hindi + English][DD 5.0] TeamTNT

Format : Matroska
Format version : Version 4 / Version 2
File size : 1.22 GiB
Duration : 1 h 31 min
Overall bit rate : 1 906 kb/s

Video
ID : 1
Format : AVC
Format/Info : Advanced Video Codec
Format profile : [email protected]
Format settings, CABAC : Yes
Format settings, RefFrames : 16 frames
Codec ID : V_MPEG4/ISO/AVC
Duration : 1 h 31 min
Bit rate : 1 035 kb/s
Width : 1 280 pixels
Height : 536 pixels
Display aspect ratio : 2.40:1
Frame rate mode : Constant
Frame rate : 23.976 (24000/1001) FPS

Audio #1
ID : 2
Format : AC-3
Format/Info : Audio Coding 3
Format settings, Endianness : Big
Codec ID : A_AC3
Duration : 1 h 31 min
Bit rate mode : Constant
Bit rate : 448 kb/s
Channel(s) : 6 channels
Channel positions : Front: L C R, Side: L R, LFE
Sampling rate : 48.0 kHz
Frame rate : 31.250 FPS (1536 SPF)
Bit depth : 16 bits
Compression mode : Lossy
Stream size : 293 MiB (24%)

Audio #2
ID : 3
Format : AC-3
Format/Info : Audio Coding 3
Format settings, Endianness : Big
Codec ID : A_AC3
Duration : 1 h 31 min
Bit rate mode : Constant
Bit rate : 448 kb/s
Channel(s) : 6 channels
Channel positions : Front: L C R, Side: L R, LFE
Sampling rate : 48.0 kHz
Frame rate : 31.250 FPS (1536 SPF)
Bit depth : 16 bits
Compression mode : Lossy
Stream size : 293 MiB (24%)

Text
ID : 4
Format : UTF-8
Codec ID : S_TEXT/UTF8
Codec ID/Info : UTF-8 Plain Text
Duration : 1 h 20 min
Bit rate : 2 b/s
Count of elements : 15
Stream size : 1.53 KiB (0%)








16TXLhSz3gUhXSGk791kHfmJfkDvbvNZMa





( Tags )





People also Search for: Diary Of A Wimpy Kid The Long Haul (2017) 720p BluRay x264 ESubs [Dual Audio][Hi

  • • 1080p Diary Of A Wimpy Kid The Long Haul (2017) 720p BluRay x264 ESubs [Dual Audio][Hi Torrent
  • • 720p Diary Of A Wimpy Kid The Long Haul (2017) 720p BluRay x264 ESubs [Dual Audio][Hi DVDRip
  • • HD Diary Of A Wimpy Kid The Long Haul (2017) 720p BluRay x264 ESubs [Dual Audio][Hi
  • • Dvix/Xvid Diary Of A Wimpy Kid The Long Haul (2017) 720p BluRay x264 ESubs [Dual Audio][Hi
  • • Blu-ray Diary Of A Wimpy Kid The Long Haul (2017) 720p BluRay x264 ESubs [Dual Audio][Hi

Recently Added Torrents

torrent name size age seed leech
69.22 MB 3 minutes 291 184
367.5 MB 3 minutes 446 178
1.6 GB 3 minutes 219 391
41.6 MB 3 minutes 537 200
2.59 GB 3 minutes 67 109