The 43 Peculia season 06 episode 08 | The Cuban Affair by Nelson DeMille ePUB eBOOK-ZAK 1 | FirstAnalQuest com_17 01 09 Melissa Grand Teen Beauty Melissa Grand Cant Help...
Loading...

Going Postal 2010 720p BluRay x264-x0r

seeders: 101
leechers: 460
Going Postal 2010 720p BluRay x264-x0r magnet link

Info Hash: E202359EFBDDA483EE7AEED18FD12DFC6BBE8B1F
Loading...
Going Postal 2010 720p BluRay x264-x0r
  • Downloads 19
  • Added 1 week
  • Quality Good
  • Torrent ID 72147619394
  • Note if .torrent file deleted click magnet below
  • Download Magnet
Torrent Info:
• You can easily download Going Postal 2010 720p BluRay x264-x0r Torerent to your PC, MAC, Tablet, Mobile or any other devices.
• HD Quality Torrent Going Postal 2010 720p BluRay x264-x0r
• Your Support Keep WatchTorrentMovie.Us alive.

Torrent Files

Going Postal 2010 720p BluRay x264-x0r (Size: 3.8 GB)
  Going Postal 2010 720p BluRay x264-x0r 3.8 GB

Torrent Description

The 43 Peculia season 06 episode 08 | The Cuban Affair by Nelson DeMille ePUB eBOOK-ZAK 1 | FirstAnalQuest com_17 01 09 Melissa Grand Teen Beauty Melissa Grand Cant Help...

Going.Postal.2010.720p.BluRay.x264-x0r

ImDb: http://www.imdb.com/title/tt1219817



Complete name : Going.Postal.2010.720p.BluRay.x264-x0r.mkv
Format : Matroska
Format version : Version 4 / Version 2
File size : 3.83 GiB
Duration : 3 h 2 min
Overall bit rate : 3 010 kb/s
Movie name : Going.Postal.2010.720p.BluRay.x264-x0r
Encoded date : UTC 2017-09-13 16:43:47
Writing application : mkvmerge v7.7.0 ('Six Voices') 64bit built on Mar 1 2015 01:50:05
Writing library : libebml v1.3.1 + libmatroska v1.4.2

Video
ID : 1
Format : AVC
Format/Info : Advanced Video Codec
Format profile : [email protected]
Format settings, CABAC : Yes
Format settings, ReFrames : 8 frames
Codec ID : V_MPEG4/ISO/AVC
Duration : 3 h 2 min
Bit rate : 2 560 kb/s
Width : 1 280 pixels
Height : 720 pixels
Display aspect ratio : 16:9
Frame rate mode : Constant
Frame rate : 25.000 FPS
Color space : YUV
Chroma subsampling : 4:2:0
Bit depth : 8 bits
Scan type : Progressive
Bits/(Pixel*Frame) : 0.111
Stream size : 3.26 GiB (85%)
Writing library : x264 core 142 r2389 956c8d8
Encoding settings : cabac=1 / ref=8 / deblock=1:1:1 / analyse=0x3:0x113 / me=umh / subme=9 / psy=1 / psy_rd=1.10:0.30 / mixed_ref=1 / me_range=32 / chroma_me=1 / trellis=2 / 8x8dct=1 / cqm=0 / deadzone=21,11 / fast_pskip=1 / chroma_qp_offset=-4 / threads=12 / lookahead_threads=1 / sliced_threads=0 / nr=0 / decimate=1 / interlaced=0 / bluray_compat=0 / constrained_intra=0 / bframes=4 / b_pyramid=2 / b_adapt=2 / b_bias=0 / direct=3 / weightb=1 / open_gop=0 / weightp=2 / keyint=250 / keyint_min=25 / scenecut=40 / intra_refresh=0 / rc_lookahead=40 / rc=2pass / mbtree=1 / bitrate=2560 / ratetol=1.0 / qcomp=0.60 / qpmin=0 / qpmax=69 / qpstep=4 / cplxblur=20.0 / qblur=0.5 / vbv_maxrate=20000 / vbv_bufsize=25000 / nal_hrd=none / filler=0 / ip_ratio=1.40 / aq=1:0.90
Language : English
Default : Yes
Forced : No
Color range : Limited
Color primaries : BT.709
Transfer characteristics : BT.709
Matrix coefficients : BT.709

Audio
ID : 2
Format : AC-3
Format/Info : Audio Coding 3
Format settings, Endianness : Big
Codec ID : A_AC3
Duration : 3 h 2 min
Bit rate mode : Constant
Bit rate : 448 kb/s
Channel(s) : 6 channels
Channel positions : Front: L C R, Side: L R, LFE
Sampling rate : 48.0 kHz
Frame rate : 31.250 FPS (1536 spf)
Bit depth : 16 bits
Compression mode : Lossy
Delay relative to video : -5 ms
Stream size : 584 MiB (15%)
Title : Surround
Language : English
Service kind : Complete Main
Default : Yes
Forced : No

Text
ID : 3
Format : UTF-8
Codec ID : S_TEXT/UTF8
Codec ID/Info : UTF-8 Plain Text
Duration : 3 h 1 min
Bit rate : 54 b/s
Count of elements : 2390
Stream size : 72.2 KiB (0%)
Language : English
Default : Yes
Forced : No

Menu
00:00:00.000 : :Chapter 1
00:09:05.040 : :Chapter 2
00:16:57.680 : :Chapter 3
00:23:45.960 : :Chapter 4
00:32:25.760 : :Chapter 5
00:41:32.400 : :Chapter 6
00:50:04.360 : :Chapter 7
00:57:53.720 : :Chapter 8
01:06:55.600 : :Chapter 9
01:17:28.400 : :Chapter 10
01:25:07.280 : :Chapter 11
01:32:01.520 : :Chapter 12
01:34:01.040 : :Chapter 13
01:40:45.360 : :Chapter 14
01:49:59.000 : :Chapter 15
01:57:56.600 : :Chapter 16
02:06:26.480 : :Chapter 17
02:13:37.600 : :Chapter 18
02:21:20.640 : :Chapter 19
02:28:20.600 : :Chapter 20
02:37:34.880 : :Chapter 21
02:45:46.400 : :Chapter 22
02:51:22.520 : :Chapter 23
02:59:09.960 : :Chapter 24






Click To View Screenshot

Click To View Screenshot

Click To View Screenshot




( Tags )





People also Search for: Going Postal 2010 720p BluRay x264-x0r

  • • 1080p Going Postal 2010 720p BluRay x264-x0r Torrent
  • • 720p Going Postal 2010 720p BluRay x264-x0r DVDRip
  • • HD Going Postal 2010 720p BluRay x264-x0r
  • • Dvix/Xvid Going Postal 2010 720p BluRay x264-x0r
  • • Blu-ray Going Postal 2010 720p BluRay x264-x0r

Recently Added Torrents

torrent name size age seed leech
2.11 MB 26 minutes 431 459
1.0 GB 26 minutes 66 471
28.7 GB 26 minutes 468 123
1.4 GB 26 minutes 238 164
4.7 MB 26 minutes 659 67