The Deep End | Playing House S03E07 HDTV x264-BATV | American Horror Story S07E01 iNTERNAL WEB H264-STRiFE[eztv] mkv
Loading...

Phantom Detective 2016 KOREAN 1080p BluRay x264 AAC 5 1-Hon3y

seeders: 372
leechers: 68
Phantom Detective 2016 KOREAN 1080p BluRay x264 AAC 5 1-Hon3y magnet link

Info Hash: 3220A08D2A281AC5F6D2067E60E7927BAC6E8DD0
Loading...
Phantom Detective 2016 KOREAN 1080p BluRay x264 AAC 5 1-Hon3y
  • Downloads 26
  • Added 1 week
  • Quality Good
  • Torrent ID 72147619292
  • Note if .torrent file deleted click magnet below
  • Download Magnet
Torrent Info:
• You can easily download Phantom Detective 2016 KOREAN 1080p BluRay x264 AAC 5 1-Hon3y Torerent to your PC, MAC, Tablet, Mobile or any other devices.
• HD Quality Torrent Phantom Detective 2016 KOREAN 1080p BluRay x264 AAC 5 1-Hon3y
• Your Support Keep WatchTorrentMovie.Us alive.

Torrent Files

Phantom Detective 2016 KOREAN 1080p BluRay x264 AAC 5 1-Hon3y (Size: 2.9 GB)
  Phantom Detective 2016 KOREAN 1080p BluRay x264 AAC 5 1-Hon3y 2.9 GB

Torrent Description

The Deep End | Playing House S03E07 HDTV x264-BATV | American Horror Story S07E01 iNTERNAL WEB H264-STRiFE[eztv] mkv

Phantom Detective 2016 KOREAN 1080p BluRay x264 AAC 5.1-Hon3y


http://www.hdsector.com


Format : Matroska
Format version : Version 4 / Version 2
File size : 2.92 GiB
Duration : 2 h 6 min
Overall bit rate : 3 318 kb/s
Movie name : Phantom Detective 2016-Hon3y


Video
ID : 1
Format : AVC
Format/Info : Advanced Video Codec
Format profile : [email protected]
Format settings : CABAC / 4 Ref Frames
Format settings, CABAC : Yes
Format settings, RefFrames : 4 frames
Codec ID : V_MPEG4/ISO/AVC
Duration : 2 h 6 min
Bit rate : 3 000 kb/s
Width : 1 920 pixels
Height : 1 040 pixels
Display aspect ratio : 1.85:1
Frame rate mode : Constant
Frame rate : 23.976 (24000/1001) FPS


Audio
ID : 2
Format : AAC
Format/Info : Advanced Audio Codec
Format profile : LC
Codec ID : A_AAC-2
Duration : 2 h 6 min
Bit rate : 320 kb/s
Channel(s) : 6 channels
Channel positions : Front: L C R, Side: L R, LFE
Sampling rate : 48.0 kHz
Frame rate : 46.875 FPS (1024 SPF)
Compression mode : Lossy
Delay relative to video : 9 ms
Stream size : 288 MiB (10%)
Language : Korean
Default : Yes
Forced : No

Text #1
ID : 3
Format : UTF-8
Codec ID : S_TEXT/UTF8
Codec ID/Info : UTF-8 Plain Text
Duration : 2 h 0 min
Bit rate : 38 b/s
Count of elements : 1498
Stream size : 34.4 KiB (0%)
Title : CHS
Language : Chinese
Default : No
Forced : No

Text #2
ID : 4
Format : UTF-8
Codec ID : S_TEXT/UTF8
Codec ID/Info : UTF-8 Plain Text
Duration : 2 h 0 min
Bit rate : 38 b/s
Count of elements : 1498
Stream size : 34.4 KiB (0%)
Title : CHT
Language : Chinese
Default : No
Forced : No

Menu
00:00:00.000 : en:00:00:00.000
00:06:38.565 : en:00:06:38.565
00:15:58.166 : en:00:15:58.166
00:24:03.317 : en:00:24:03.317
00:31:06.698 : en:00:31:06.698
00:37:05.974 : en:00:37:05.974
00:46:35.543 : en:00:46:35.543
00:57:08.759 : en:00:57:08.759
01:06:16.264 : en:01:06:16.264
01:12:18.501 : en:01:12:18.501
01:23:11.111 : en:01:23:11.111
01:32:25.498 : en:01:32:25.498
01:38:52.802 : en:01:38:52.802
01:43:29.328 : en:01:43:29.328
01:54:20.312 : en:01:54:20.312
02:00:04.447 : en:02:00:04.447

http://www.hdsector.com





( Tags )





People also Search for: Phantom Detective 2016 KOREAN 1080p BluRay x264 AAC 5 1-Hon3y

  • • 1080p Phantom Detective 2016 KOREAN 1080p BluRay x264 AAC 5 1-Hon3y Torrent
  • • 720p Phantom Detective 2016 KOREAN 1080p BluRay x264 AAC 5 1-Hon3y DVDRip
  • • HD Phantom Detective 2016 KOREAN 1080p BluRay x264 AAC 5 1-Hon3y
  • • Dvix/Xvid Phantom Detective 2016 KOREAN 1080p BluRay x264 AAC 5 1-Hon3y
  • • Blu-ray Phantom Detective 2016 KOREAN 1080p BluRay x264 AAC 5 1-Hon3y

Recently Added Torrents

torrent name size age seed leech

Posted by   Admin  in 
1 year 603 4
228.82 MB 5 minutes 405 418
9.8 GB 5 minutes 570 211
1.1 GB 5 minutes 798 195
8.21 MB 5 minutes 127 354