Prochain Films Streaming | The Fear | Update Now
Loading...

Sonny Boy 1989 720p BluRay x264-x0r

seeders: 739
leechers: 349
Sonny Boy 1989 720p BluRay x264-x0r magnet link

Info Hash: 4F5EB303B2AD6B92874D5ADFE072F3652A3D0C8F
Loading...
Sonny Boy 1989 720p BluRay x264-x0r
  • Downloads 18
  • Added 1 week
  • Quality Good
  • Torrent ID 72147619431
  • Note if .torrent file deleted click magnet below
  • Download Magnet
Torrent Info:
• You can easily download Sonny Boy 1989 720p BluRay x264-x0r Torerent to your PC, MAC, Tablet, Mobile or any other devices.
• HD Quality Torrent Sonny Boy 1989 720p BluRay x264-x0r
• Your Support Keep WatchTorrentMovie.Us alive.

Torrent Files

Sonny Boy 1989 720p BluRay x264-x0r (Size: 2.3 GB)
  Sonny Boy 1989 720p BluRay x264-x0r 2.3 GB

Torrent Description

Prochain Films Streaming | The Fear | Update Now

Sonny.Boy.1989.720p.BluRay.x264-x0r

ImDb: http://www.imdb.com/title/tt1430391



Complete name : Sonny.Boy.1989.720p.BluRay.x264-x0r.mkv
Format : Matroska
Format version : Version 4 / Version 2
File size : 2.26 GiB
Duration : 1 h 43 min
Overall bit rate : 3 138 kb/s
Movie name : Sonny.Boy.1989.720p.BluRay.x264-x0r
Encoded date : UTC 2017-09-13 17:53:09
Writing application : mkvmerge v7.7.0 ('Six Voices') 64bit built on Mar 1 2015 01:50:05
Writing library : libebml v1.3.1 + libmatroska v1.4.2

Video
ID : 1
Format : AVC
Format/Info : Advanced Video Codec
Format profile : [email protected]
Format settings, CABAC : Yes
Format settings, ReFrames : 8 frames
Codec ID : V_MPEG4/ISO/AVC
Duration : 1 h 43 min
Bit rate : 2 560 kb/s
Width : 1 280 pixels
Height : 720 pixels
Display aspect ratio : 16:9
Frame rate mode : Constant
Frame rate : 23.976 FPS
Color space : YUV
Chroma subsampling : 4:2:0
Bit depth : 8 bits
Scan type : Progressive
Bits/(Pixel*Frame) : 0.116
Stream size : 1.84 GiB (82%)
Writing library : x264 core 130 r2273 b3065e6
Encoding settings : cabac=1 / ref=8 / deblock=1:1:1 / analyse=0x3:0x133 / me=umh / subme=10 / psy=1 / psy_rd=1.00:0.25 / mixed_ref=0 / me_range=32 / chroma_me=1 / trellis=2 / 8x8dct=1 / cqm=0 / deadzone=6,6 / fast_pskip=0 / chroma_qp_offset=-4 / threads=12 / lookahead_threads=1 / sliced_threads=0 / nr=0 / decimate=1 / interlaced=0 / bluray_compat=0 / constrained_intra=0 / bframes=4 / b_pyramid=2 / b_adapt=2 / b_bias=0 / direct=3 / weightb=1 / open_gop=0 / weightp=2 / keyint=240 / keyint_min=24 / scenecut=40 / intra_refresh=0 / rc_lookahead=60 / rc=2pass / mbtree=1 / bitrate=2560 / ratetol=1.0 / qcomp=0.00 / qpmin=0 / qpmax=69 / qpstep=4 / cplxblur=20.0 / qblur=0.5 / vbv_maxrate=20000 / vbv_bufsize=25000 / nal_hrd=none / ip_ratio=1.10 / aq=1:1.00
Language : English
Default : Yes
Forced : No
Color range : Limited
Color primaries : BT.709
Transfer characteristics : BT.709
Matrix coefficients : BT.709

Audio #1
ID : 2
Format : AC-3
Format/Info : Audio Coding 3
Format settings, Endianness : Big
Codec ID : A_AC3
Duration : 1 h 43 min
Bit rate mode : Constant
Bit rate : 192 kb/s
Channel(s) : 2 channels
Channel positions : Front: L R
Sampling rate : 48.0 kHz
Frame rate : 31.250 FPS (1536 spf)
Bit depth : 16 bits
Compression mode : Lossy
Stream size : 142 MiB (6%)
Title : Stereo
Language : English
Service kind : Complete Main
Default : Yes
Forced : No

Audio #2
ID : 3
Format : AC-3
Format/Info : Audio Coding 3
Format settings, Endianness : Big
Codec ID : A_AC3
Duration : 1 h 43 min
Bit rate mode : Constant
Bit rate : 192 kb/s
Channel(s) : 2 channels
Channel positions : Front: L R
Sampling rate : 48.0 kHz
Frame rate : 31.250 FPS (1536 spf)
Bit depth : 16 bits
Compression mode : Lossy
Stream size : 142 MiB (6%)
Title : Commentary #1
Language : English
Service kind : Complete Main
Default : No
Forced : No

Audio #3
ID : 4
Format : AC-3
Format/Info : Audio Coding 3
Format settings, Endianness : Big
Codec ID : A_AC3
Duration : 1 h 43 min
Bit rate mode : Constant
Bit rate : 192 kb/s
Channel(s) : 2 channels
Channel positions : Front: L R
Sampling rate : 48.0 kHz
Frame rate : 31.250 FPS (1536 spf)
Bit depth : 16 bits
Compression mode : Lossy
Stream size : 142 MiB (6%)
Title : Commentary #2
Language : English
Service kind : Complete Main
Default : No
Forced : No

Text
ID : 5
Format : UTF-8
Codec ID : S_TEXT/UTF8
Codec ID/Info : UTF-8 Plain Text
Duration : 1 h 42 min
Bit rate : 35 b/s
Count of elements : 1107
Stream size : 26.4 KiB (0%)
Language : English
Default : Yes
Forced : No

Menu
00:00:00.000 : en:Chapter 1
00:10:47.688 : en:Chapter 2
00:17:40.893 : en:Chapter 3
00:25:14.804 : en:Chapter 4
00:33:24.043 : en:Chapter 5
00:41:41.707 : en:Chapter 6
00:50:26.982 : en:Chapter 7
00:57:03.503 : en:Chapter 8
01:04:39.876 : en:Chapter 9
01:12:49.990 : en:Chapter 10
01:23:31.798 : en:Chapter 11
01:32:16.405 : en:Chapter 12
01:43:08.098 : en:Chapter 13






Click To View Screenshot

Click To View Screenshot

Click To View Screenshot




( Tags )





People also Search for: Sonny Boy 1989 720p BluRay x264-x0r

  • • 1080p Sonny Boy 1989 720p BluRay x264-x0r Torrent
  • • 720p Sonny Boy 1989 720p BluRay x264-x0r DVDRip
  • • HD Sonny Boy 1989 720p BluRay x264-x0r
  • • Dvix/Xvid Sonny Boy 1989 720p BluRay x264-x0r
  • • Blu-ray Sonny Boy 1989 720p BluRay x264-x0r

Recently Added Torrents

torrent name size age seed leech
228.82 MB 14 minutes 448 321
9.8 GB 14 minutes 486 144
1.1 GB 14 minutes 610 135
8.21 MB 14 minutes 594 125
943.0 MB 14 minutes 283 493