Nowhere Boys | Love is 2017 WEB-DLRip | Scooby-doo Monster of Mexico French Dvd-ripped(A)
Loading...

Transformers The Last Knight (2017) 1080p DD5 1 - 2 0 x264 Phun Psyz

seeders: 54
leechers: 137
Transformers The Last Knight (2017) 1080p DD5 1 - 2 0 x264 Phun Psyz magnet link

Info Hash: 246FDA534C824925D37CFC893F5E5DE6AF314BF2
Loading...
Transformers The Last Knight (2017) 1080p DD5 1 - 2 0 x264 Phun Psyz
  • Downloads 15
  • Added 1 week
  • Quality Good
  • Torrent ID 72147619406
  • Note if .torrent file deleted click magnet below
  • Download Magnet
Torrent Info:
• You can easily download Transformers The Last Knight (2017) 1080p DD5 1 - 2 0 x264 Phun Psyz Torerent to your PC, MAC, Tablet, Mobile or any other devices.
• HD Quality Torrent Transformers The Last Knight (2017) 1080p DD5 1 - 2 0 x264 Phun Psyz
• Your Support Keep WatchTorrentMovie.Us alive.

Torrent Files

Transformers The Last Knight (2017) 1080p DD5 1 - 2 0 x264 Phun Psyz (Size: 2.6 GB)
  Transformers The Last Knight (2017) 1080p DD5 1 - 2 0 x264 Phun Psyz 2.6 GB

Torrent Description

Nowhere Boys | Love is 2017 WEB-DLRip | Scooby-doo Monster of Mexico French Dvd-ripped(A)

x265 Size, x264 Compatibility, HD Quality

www.imdb.com/title/tt3371366/

Autobots and Decepticons are at war, with humans on the sidelines. Optimus Prime is gone. The key to saving our future lies buried in the secrets of the past, in the hidden history of Transformers on Earth.

Source: SiGMA (Amzn) (10.3 GiB)














Format : MPEG-4
Format profile : Base Media / Version 2
Codec ID : mp42 (isom/iso2/avc1/mp41)
File size : 2.58 GiB
Duration : 2 h 34 min
Overall bit rate mode : Variable
Overall bit rate : 2 393 kb/s
Writing application : HandBrake 1.0.7 2017040900

Video
ID : 1
Format : AVC
Format/Info : Advanced Video Codec
Format profile : [email protected]
Format settings, CABAC : Yes
Format settings, ReFrames : 8 frames
Codec ID : avc1
Codec ID/Info : Advanced Video Coding
Duration : 2 h 34 min
Bit rate : 1 903 kb/s
Width : 1 920 pixels
Height : 1 040 pixels
Display aspect ratio : 1.85:1
Frame rate mode : Variable
Frame rate : 23.976 (24000/1001) FPS
Minimum frame rate : 23.974 FPS
Maximum frame rate : 23.981 FPS
Color space : YUV
Chroma subsampling : 4:2:0
Bit depth : 8 bits
Scan type : Progressive
Bits/(Pixel*Frame) : 0.040
Stream size : 2.05 GiB (80%)
Writing library : x264 core 148 r2708 86b7198
Color range : Limited
Color primaries : BT.709
Transfer characteristics : BT.709
Matrix coefficients : BT.709

Audio #1
ID : 2
Format : AAC
Format/Info : Advanced Audio Codec
Format profile : LC
Codec ID : 40
Duration : 2 h 34 min
Bit rate mode : Variable
Bit rate : 320 kb/s
Channel(s) : 2 channels
Channel(s)_Original : 6 channels
Channel positions : Front: L C R, Side: L R, LFE
Sampling rate : 48.0 kHz
Frame rate : 46.875 FPS (1024 spf)
Compression mode : Lossy
Stream size : 354 MiB (13%)
Title : Surround / Surround
Language : English
Default : Yes
Alternate group : 1

Audio #2
ID : 3
Format : AAC
Format/Info : Advanced Audio Codec
Format profile : LC
Codec ID : 40
Duration : 2 h 34 min
Bit rate mode : Variable
Bit rate : 160 kb/s
Channel(s) : 2 channels
Channel positions : Front: L R
Sampling rate : 48.0 kHz
Frame rate : 46.875 FPS (1024 spf)
Compression mode : Lossy
Stream size : 177 MiB (7%)
Title : Stereo / Stereo
Language : English
Default : No
Alternate group : 1

Text
ID : 4
Format : Timed Text
Muxing mode : sbtl
Codec ID : tx3g
Duration : 2 h 26 min
Bit rate mode : Variable
Bit rate : 81 b/s
Stream size : 87.2 KiB (0%)
Language : English
Default : Yes
Forced : No
Alternate group : 3




( Tags )





People also Search for: Transformers The Last Knight (2017) 1080p DD5 1 - 2 0 x264 Phun Psyz

  • • 1080p Transformers The Last Knight (2017) 1080p DD5 1 - 2 0 x264 Phun Psyz Torrent
  • • 720p Transformers The Last Knight (2017) 1080p DD5 1 - 2 0 x264 Phun Psyz DVDRip
  • • HD Transformers The Last Knight (2017) 1080p DD5 1 - 2 0 x264 Phun Psyz
  • • Dvix/Xvid Transformers The Last Knight (2017) 1080p DD5 1 - 2 0 x264 Phun Psyz
  • • Blu-ray Transformers The Last Knight (2017) 1080p DD5 1 - 2 0 x264 Phun Psyz

Recently Added Torrents

torrent name size age seed leech
228.82 MB 19 minutes 440 247
9.8 GB 19 minutes 198 485
1.1 GB 19 minutes 253 144
8.21 MB 19 minutes 435 47
943.0 MB 19 minutes 102 343